Skip to main content

Dawes Live at Memorial Union Rathskeller - UW Madison on 2010-02-13

Audio Preview

etree
Dawes Live at Memorial Union Rathskeller - UW Madison on 2010-02-13

by Dawes



01. When You Call My Name
02. Give Me Time ->
03. Bedside Manner
04. If I Wanted Someone
05. Love Is All I Am
06. How Far We've Come
07. If You Let Me Be Your Anchor
08. My Girl To Me *
09. Time Spent In Los Angeles
10. That Western Skyline
11. When My Time Comes
12. encore break
13. Lawyers Guns & Money
14. banter - Patrick's merch pitch
15. Peace In The Valley *
16. music over PA
17. recordists's signout

* w/ Patrick Breiner on tenor saxophone


Collection Dawes
Band/Artist Dawes
Venue Memorial Union Rathskeller - UW Madison
Location Madison WI USA

Source Mackie SBD tape outs > Sony PCM-M1 > DAT @16/48 Neumann KM140's > Beyer MV100 > M-Audio Microtrack II > WAV @24/48
Lineage WAV files > Audacity 1.3.11 (speed change of .0037% on DAT SBD source, mix sources@ SBD -6dB, AUD -3dB) > WAV @24/48 > Audacity 1.3.11 (tracking, convert & dither) > WAV files @16/44.1 > xACT1.71 > FLAC level 8
Taped by morst
Transferred by morst

Notes

FoH audio: Scott (Intellisound)

SHNTOOL:
length expanded size cdr WAVE problems fmt ratio filename
4:28.872 77435048 B cxx -- ---xx Dawes2010-02-13-2448t01.flac
3:06.741 53781380 B cxx -- ---xx Dawes2010-02-13-2448t02.flac
4:10.964 72277580 B cxx -- ---xx Dawes2010-02-13-2448t03.flac
4:46.061 82385726 B cxx -- ---xx Dawes2010-02-13-2448t04.flac
5:53.658 101853494 B cxx -- ---xx Dawes2010-02-13-2448t05.flac
3:36.150 62251118 B cxx -- ---xx Dawes2010-02-13-2448t06.flac
3:54.124 67427864 B cxx -- ---xx Dawes2010-02-13-2448t07.flac
5:39.089 97657718 B cxx -- ---xx Dawes2010-02-13-2448t08.flac
4:28.653 77372018 B cxx -- ---xx Dawes2010-02-13-2448t09.flac
5:39.200 97689764 B cxx -- ---xx Dawes2010-02-13-2448t10.flac
5:23.066 93042968 B cxx -- ---xx Dawes2010-02-13-2448t11.flac
1:00.385 17390840 B cxx -- ---xx Dawes2010-02-13-2448t12.flac
3:51.532 66681254 B cxx -- ---xx Dawes2010-02-13-2448t13.flac
1:19.141 22792790 B cxx -- ---xx Dawes2010-02-13-2448t14.flac
10:38.396 183858152 B cxx -- ---xx Dawes2010-02-13-2448t15.flac
3:44.528 64664078 B cxx -- ---xx Dawes2010-02-13-2448t16.flac
0:33.580 9671198 B cxx -- ---xx Dawes2010-02-13-2448t17.flac
72:14.140 1248232990 B 0.6905 (17 files)

-~-~-~-~-~-~-~-~-~-~-~-~-~-~-~-~-~-~-~-~-~-~-~-~-~-
The Soundscape Preservation Society (Founded 1991)
http://www.iamtypingwithonefinger.com/SPS.html
-~-~-~-~-~-~-~-~-~-~-~-~-~-~-~-~-~-~-~-~-~-~-~-~-~-

comment
Reviews

There are no reviews yet. Be the first one to write a review.
DOWNLOAD OPTIONS
In Collection
Dawes
In Collection
Live Music Archive
Uploaded by
morst
on 10/6/2010
Views
373
SIMILAR ITEMS (based on metadata)
Dawes
etree
eye 2,958
favorite 3
comment 1
favoritefavoritefavoritefavoritefavorite ( 1 reviews )
Source: Mackie SBD tape outs > Sony PCM-M1 > DAT @16/48 Neumann KM140's > Beyer MV100 > M-Audio Microtrack II > WAV @24/48
Dawes
etree
eye 391
favorite 1
comment 0
Source: Neumann KM140's (ORTF with windscreens on stand, right side, back of main floor) > Beyer MV100 > M-Audio Microtrack II > WAV @24-bit/48kHz + Soundcraft Spirit 8 SBD > Zoom H2 > WAV @24-bit/48kHz
Dawes
etree
eye 1,296
favorite 1
comment 0
Source: Neumann KM140's (ORTF with windscreens on stand, right side, back of main floor) > Beyer MV100 > M-Audio Microtrack II > WAV @24-bit/48kHz + Soundcraft Spirit 8 SBD > Zoom H2 > WAV @24-bit/48kHz
Jason Boesel
by Jason Boesel
etree
eye 983
favorite 1
comment 0
Source: SBD + Audience 4-channel post-production matrix mix
Dawes
by Dawes
etree
eye 749
favorite 1
comment 0
Source: [SBD] + [AK40 (ORTF, ~7' high @ SBD) > LC3 > KM100 > Aerco MP-2] >> R-44 (Oade CM) >> WAV @ 24bit/44.1KHz
Dawes
by Dawes
etree
eye 710
favorite 1
comment 0
Source: Mackie SBD > Sony PCM-M1 > DAT + Neumann KM140’s > MV100 > -11dB attenuator cable > H2 (mic pads set at -10dB) > WAV @24-bit/48kHz (ORTF on stand, rt of center, 9' high)
Dawes
by Dawes
etree
eye 590
favorite 1
comment 0
Source: Allen & Heath GL3300 SBD > Sony PCM-M1 > DAT + Neumann KM140’s > MV100 > -11dB attenuator cable > H2 (mic pads set at -10dB) > WAV @24-bit/48kHz (clamped on ctr post, ~8' high)
Cracker
by Cracker
etree
eye 279
favorite 0
comment 0
Source: SBD + Audience 4-channel post-production matrix mix
Cracker
by Cracker
etree
eye 171
favorite 1
comment 0
Source: Soundcraft K2 SBD mono out + Neumann KM140's > Grace V3 > Edirol R44 > WAV @24/48
Dawes
by Dawes
etree
eye 1,708
favorite 1
comment 1
favoritefavoritefavoritefavorite ( 1 reviews )
Source: [AK40 (ORTF, ~7' high, back of room @ soundboard) >> LC3 >> KM100] + [digital SBD feed] >> R-44 (Oade CM) >> WAV (24bit/48KHz)